Agnus Dei (jackal) wrote,
Agnus Dei
jackal

How to get around the Sony Bravia "Connect Not Supported" Bug

Convert the movie down to a lower kb/s

BEFORE:

$ ffmpeg -i my-movie.mp4 2>&1 |egrep "Duration|Stream"
Duration: 01:26:16.58, start: 0.000000, bitrate: 2048 kb/s
Stream #0.0(und): Video: h264 (High), yuv420p, 1920x1040 [PAR 1:1 DAR 24:13], 1950 kb/s, 23.98 fps, 23.98 tbr, 24k tbn, 47.95 tbc
Stream #0.1(eng): Audio: aac, 48000 Hz, stereo, s16, 93 kb/s

AFTER:
$ ffmpeg -i new-my-movie.mp4 2>&1 |egrep "Duration|Stream"
Duration: 01:26:16.58, start: 0.000000, bitrate: 1073 kb/s
Stream #0.0(und): Video: h264 (Main), yuv420p, 1920x1040, 942 kb/s, 23.98 fps, 23.98 tbr, 24k tbn, 47.95 tbc
Stream #0.1(und): Audio: aac, 48000 Hz, stereo, s16, 127 kb/s
Subscribe
  • Post a new comment

    Error

    Anonymous comments are disabled in this journal

    default userpic

    Your reply will be screened

  • 0 comments